Кафе "Голубая сойка" | Blue Jay [WEB-DL 1080p]

Тема в разделе "Кафе "Голубая сойка"", создана пользователем Devzz, 14 янв 2020.

  1. Devzz

    Devzz Administrator Команда форума

    Сообщения:
    234
    Кафе "Голубая сойка" | Blue Jay

    Год выпуска: 2016
    Страна: США
    Жанр: драма
    Продолжительность: 01:20:00
    Озвучание: профессиональное многоголосое закадровое, без цензуры (FocusX)
    Cубтитры
    : нет

    Режиссер: Александр Леманн

    В ролях: Марк Дюпласс, Сара Полсон, Клу Гулагер, Джеймс Эндрюс, Харрис Бенбури, Дэниел Брукс, Мэри Брукс, Билл Грир, Синди Грир и др.

    Описание:
    Джим и Аманда были первой любовью друг для друга еще в школе. Расставшись, каждый пошёл своей дорогой, покинул дом и отправился искать своё счастье, призвание и судьбу.

    Но вот спустя двадцать лет Джим возвращается в родной провинциальный городок, чтобы привести в порядок родительский дом перед предстоящей продажей, и надо же такому случиться, что Аманда тоже заглянула в город, чтобы проведать беременную сестру. В одно и то же самое время они заходят в местный продуктовый магазинчик и сталкиваются лбами. Глазам не могут поверить, но быстро приходят в себя, решают выпить по чашечке кофе и вспомнить былые времена…

    General
    Unique ID : 339185815942289517258608442674295974454 (0xFF2CCFDCD6798AEEDA02C298F881AA36)
    Complete name : Blue.Jay.WEB-DL.1080p.FocusX.mkv
    Format : Matroska
    Format version : Version 4
    File size : 3.72 GiB
    Duration : 1 h 20 min
    Overall bit rate mode : Variable
    Overall bit rate : 6 604 kb/s
    Movie name : Blue Jay @ FocusX
    Encoded date : UTC 2020-01-14 15:51:46
    Writing application : mkvmerge v42.0.0 ('Overtime') 64-bit
    Writing library : libebml v1.3.10 + libmatroska v1.5.2

    Video
    ID : 1
    Format : AVC
    Format/Info : Advanced Video Codec
    Format profile : [email protected]
    Format settings : CABAC / 3 Ref Frames
    Format settings, CABAC : Yes
    Format settings, Reference frames : 3 frames
    Codec ID : V_MPEG4/ISO/AVC
    Duration : 1 h 20 min
    Bit rate mode : Variable
    Bit rate : 5 360 kb/s
    Maximum bit rate : 8 040 kb/s
    Width : 1 920 pixels
    Height : 1 080 pixels
    Display aspect ratio : 16:9
    Frame rate mode : Constant
    Frame rate : 23.976 (24000/1001) FPS
    Color space : YUV
    Chroma subsampling : 4:2:0
    Bit depth : 8 bits
    Scan type : Progressive
    Bits/(Pixel*Frame) : 0.108
    Stream size : 2.92 GiB (79%)
    Writing library : x264 core 118
    Encoding settings : cabac=1 / ref=3 / deblock=1:0:0 / analyse=0x1:0x111 / me=umh / subme=10 / psy=1 / psy_rd=1.00:0.00 / mixed_ref=1 / me_range=24 / chroma_me=1 / trellis=2 / 8x8dct=0 / cqm=0 / deadzone=21,11 / fast_pskip=1 / chroma_qp_offset=-2 / threads=8 / sliced_threads=0 / nr=0 / decimate=1 / interlaced=0 / bluray_compat=0 / constrained_intra=0 / bframes=2 / b_pyramid=0 / b_adapt=2 / b_bias=0 / direct=3 / weightb=1 / open_gop=0 / weightp=2 / keyint=48 / keyint_min=25 / scenecut=0 / intra_refresh=0 / rc_lookahead=0 / rc=2pass / mbtree=1 / bitrate=5360 / ratetol=1.0 / qcomp=0.50 / qpmin=6 / qpmax=51 / qpstep=4 / cplxblur=20.0 / qblur=0.5 / vbv_maxrate=8040 / vbv_bufsize=10720 / nal_hrd=vbr / ip_ratio=1.40 / aq=1:1.00
    Default : Yes
    Forced : No

    Audio #1
    ID : 2
    Format : AC-3
    Format/Info : Audio Coding 3
    Commercial name : Dolby Digital
    Codec ID : A_AC3
    Duration : 1 h 20 min
    Bit rate mode : Constant
    Bit rate : 640 kb/s
    Channel(s) : 6 channels
    Channel layout : L R C LFE Ls Rs
    Sampling rate : 48.0 kHz
    Frame rate : 31.250 FPS (1536 SPF)
    Compression mode : Lossy
    Stream size : 369 MiB (10%)
    Title : MVO FocusX
    Language : Russian
    Service kind : Complete Main
    Default : Yes
    Forced : No

    Audio #2
    ID : 3
    Format : AC-3
    Format/Info : Audio Coding 3
    Commercial name : Dolby Digital
    Codec ID : A_AC3
    Duration : 1 h 20 min
    Bit rate mode : Constant
    Bit rate : 640 kb/s
    Channel(s) : 6 channels
    Channel layout : L R C LFE Ls Rs
    Sampling rate : 48.0 kHz
    Frame rate : 31.250 FPS (1536 SPF)
    Compression mode : Lossy
    Stream size : 369 MiB (10%)
    Language : English
    Service kind : Complete Main
    Default : No
    Forced : No
    Качество: WEB-DL 1080p
    Формат: MKV
    Видео: 1920x1080, 23.976 fps, AVC, 5360 kbps
    Аудио Rus: 48 kHz, AC3 Dolby Digital, 3/2 (L,C,R,l,r) + LFE ch, 640.00 kbps
    Аудио Eng: 48 kHz, AC3 Dolby Digital, 3/2 (L,C,R,l,r) + LFE ch, 640.00 kbps
     
    • СКАЧАТЬ MAGNET
      (18,8 КБ, 2.879 Просмотров, Размер: 3,7 ГБ, Сидеры: 0, Личеры: 0, Золото
    • Загрузка...
    Последнее редактирование: 14 янв 2020
    rincewind1905wizzard нравится это.