Наши души по ночам | Our Souls at Night [WEB-DL 1080p]

Тема в разделе "Наши души по ночам", создана пользователем Devzz, 14 янв 2020.

  1. Devzz

    Devzz Administrator Команда форума

    Сообщения:
    233
    Наши души по ночам | Our Souls at Night

    Год выпуска: 2016
    Страна: США
    Жанр: драма
    Продолжительность: 01:43:00
    Озвучание: профессиональное многоголосое закадровое (FocusX)
    Cубтитры
    : нет

    Режиссер: Ритеш Батра

    В ролях: Джуди Грир, Роберт Редфорд, Джейн Фонда, Маттиас Шонартс, Иэн Армитедж, Брюс Дерн, Филлис Соммервиль, Антула Кациматидес, Одри Уолтерс, Хоули Пенфолд и др.

    Описание:
    Двое пожилых овдовевших соседей начинают платонически спать друг с другом, чтобы побороть одиночество.

    General
    Unique ID : 83764647979963266314577230877392721434 (0x3F047C007EF2BF334A8E3E40F649561A)
    Complete name : Our.Souls.at.Night.WEB-DL.1080p.FocusX.mkv
    Format : Matroska
    Format version : Version 4
    File size : 3.35 GiB
    Duration : 1 h 43 min
    Overall bit rate mode : Variable
    Overall bit rate : 4 639 kb/s
    Movie name : Our Souls at Night @ FocusX
    Encoded date : UTC 2020-01-14 16:12:40
    Writing application : mkvmerge v42.0.0 ('Overtime') 64-bit
    Writing library : libebml v1.3.10 + libmatroska v1.5.2

    Video
    ID : 1
    Format : AVC
    Format/Info : Advanced Video Codec
    Format profile : [email protected]
    Format settings : CABAC / 3 Ref Frames
    Format settings, CABAC : Yes
    Format settings, Reference frames : 3 frames
    Codec ID : V_MPEG4/ISO/AVC
    Duration : 1 h 43 min
    Bit rate mode : Variable
    Bit rate : 3 267 kb/s
    Nominal bit rate : 3 480 kb/s
    Maximum bit rate : 5 220 kb/s
    Width : 1 920 pixels
    Height : 1 080 pixels
    Display aspect ratio : 16:9
    Frame rate mode : Constant
    Frame rate : 23.976 (24000/1001) FPS
    Color space : YUV
    Chroma subsampling : 4:2:0
    Bit depth : 8 bits
    Scan type : Progressive
    Bits/(Pixel*Frame) : 0.066
    Stream size : 2.36 GiB (70%)
    Writing library : x264 core 148 r2715 7e75228
    Encoding settings : cabac=1 / ref=3 / deblock=1:0:0 / analyse=0x1:0x111 / me=umh / subme=10 / psy=1 / psy_rd=1.00:0.00 / mixed_ref=1 / me_range=24 / chroma_me=1 / trellis=2 / 8x8dct=0 / cqm=0 / deadzone=21,11 / fast_pskip=1 / chroma_qp_offset=-2 / threads=8 / lookahead_threads=1 / sliced_threads=0 / nr=0 / decimate=1 / interlaced=0 / bluray_compat=0 / stitchable=1 / constrained_intra=0 / bframes=2 / b_pyramid=0 / b_adapt=2 / b_bias=0 / direct=3 / weightb=1 / open_gop=0 / weightp=2 / keyint=48 / keyint_min=25 / scenecut=0 / intra_refresh=0 / rc_lookahead=48 / rc=2pass / mbtree=1 / bitrate=3480 / ratetol=1.0 / qcomp=0.50 / qpmin=6 / qpmax=51 / qpstep=4 / cplxblur=20.0 / qblur=0.5 / vbv_maxrate=5220 / vbv_bufsize=6960 / nal_hrd=vbr / filler=0 / ip_ratio=1.40 / aq=1:1.00
    Default : Yes
    Forced : No

    Audio #1
    ID : 2
    Format : AC-3
    Format/Info : Audio Coding 3
    Commercial name : Dolby Digital
    Codec ID : A_AC3
    Duration : 1 h 43 min
    Bit rate mode : Constant
    Bit rate : 640 kb/s
    Channel(s) : 6 channels
    Channel layout : L R C LFE Ls Rs
    Sampling rate : 48.0 kHz
    Frame rate : 31.250 FPS (1536 SPF)
    Compression mode : Lossy
    Stream size : 473 MiB (14%)
    Title : MVO FocusX
    Language : Russian
    Service kind : Complete Main
    Default : Yes
    Forced : No

    Audio #2
    ID : 3
    Format : AC-3
    Format/Info : Audio Coding 3
    Commercial name : Dolby Digital
    Codec ID : A_AC3
    Duration : 1 h 43 min
    Bit rate mode : Constant
    Bit rate : 640 kb/s
    Channel(s) : 6 channels
    Channel layout : L R C LFE Ls Rs
    Sampling rate : 48.0 kHz
    Frame rate : 31.250 FPS (1536 SPF)
    Compression mode : Lossy
    Stream size : 473 MiB (14%)
    Language : English
    Service kind : Complete Main
    Default : No
    Forced : No
    Качество: WEB-DL 1080p
    Формат: MKV
    Видео: 1920x1080, 23.976 fps, AVC, 3300 kbps
    Аудио Rus: 48 kHz, AC3 Dolby Digital, 3/2 (L,C,R,l,r) + LFE ch, 640.00 kbps
    Аудио Eng: 48 kHz, AC3 Dolby Digital, 3/2 (L,C,R,l,r) + LFE ch, 640.00 kbps
     
    • СКАЧАТЬ MAGNET
      (16,9 КБ, 2.888 Просмотров, Размер: 3,3 ГБ, Сидеры: 0, Личеры: 0, Золото
    • Загрузка...
    rincewind1905wizzard нравится это.