Тюрьма Оз / Oz / Сезон 1-4 (6) / Серии 1-40 (56) [DVDRip]

Тема в разделе "Тюрьма Оз", создана пользователем Devzz, 31 дек 2018.

  1. Devzz

    Devzz Administrator Команда форума

    Сообщения:
    245
    Тюрьма Оз / Oz
    1 - 4 сезон

    Год выпуска:1997
    Страна: США
    Жанр: драма, криминал, триллер
    Продолжительность: 56 х ~ 50-60 мин
    Озвучание: профессиональное многоголосое закадровое, без цензуры (FocusX)

    Режиссёры: Дарнелл Мартин, Ник Гомез, Жан Де Сегонзак, Лесли Либман, Ларри Уильямс, Алан Тейлор и другие

    В ролях: Ли Тергесен, Дж.К. Симмонс, Дин Уинтерс, Хэролд Перрино, Эрни Хадсон, Терри Кинни, Имонн Уолкер, Рита Морено, Джордж Морфоген, Кирк Асеведо, Мумс Да Шемер, Лорен Велес, Б.Д. Вонг, Адевале Акиннуойе-Агбадже, Желько Иванек, Эди Фалько, Дж.Д. Уильямс...

    Описание: Оз — так называют государственное исправительное учреждение строгого режима. Оз воздаёт каждому по заслугам. Кто там только ни отбывает наказание! И убийцы, и мошенники, и извращенцы. А уже среди них — психопаты, как, например, Гроуз — душевнобольной социопат, прикончивший своих родителей и съевший их; или больные СПИДом; а ещё полно гомосексуалов и наркоманов, которых постоянно истребляет Дино Арталани, осуждённый пожизненно за преднамеренное убийство.

    Тем не менее в тюрьме царят порядок, жёсткие правила и стерильная чистота. Однако всё это только днём. Ночью на смену установленному властями порядку приходит свой страшный и «крутой» закон — не каждому удаётся дожить до утра…


    Релиз: [​IMG]


    Качество: DVDRip
    Формат: MKV
    Видео: 720x480, 23.976 fps, MPEG-4 AVC ~2200 kbps
    Аудио Rus: 48 kHz, AC3, 6 ch, ~384 kbps
    Аудио Eng: 48 kHz, AC3, 6 ch, ~384 kbps

    General
    Unique ID : 170858508109902566490618666107380620610 (0x808A26D5F4E5A6D4A3515D13A626DD42)
    Complete name : oz.s01e01.dvdrip.focusx.mkv
    Format : Matroska
    Format version : Version 4
    File size : 1.18 GiB
    Duration : 55 min 56 s
    Overall bit rate : 3 020 kb/s
    Movie name : Oz 1x01 @ FocusX
    Encoded date : UTC 2018-12-31 16:40:18
    Writing application : mkvmerge v8.1.0 ('Psychedelic Postcard') 64bit
    Writing library : libebml v1.3.1 + libmatroska v1.4.2

    Video
    ID : 1
    Format : AVC
    Format/Info : Advanced Video Codec
    Format profile : [email protected]
    Format settings : CABAC / 16 Ref Frames
    Format settings, CABAC : Yes
    Format settings, ReFrames : 16 frames
    Codec ID : V_MPEG4/ISO/AVC
    Duration : 55 min 56 s
    Bit rate : 2 250 kb/s
    Width : 720 pixels
    Height : 480 pixels
    Display aspect ratio : 4:3
    Frame rate mode : Constant
    Frame rate : 23.976 (24000/1001) FPS
    Color space : YUV
    Chroma subsampling : 4:2:0
    Bit depth : 8 bits
    Scan type : Progressive
    Bits/(Pixel*Frame) : 0.272
    Stream size : 877 MiB (73%)
    Writing library : x264 core 157 r2935 545de2f
    Encoding settings : cabac=1 / ref=16 / deblock=1:-3:-2 / analyse=0x3:0x113 / me=umh / subme=11 / psy=1 / psy_rd=1.05:0.10 / mixed_ref=1 / me_range=32 / chroma_me=1 / trellis=2 / 8x8dct=1 / cqm=0 / deadzone=21,11 / fast_pskip=0 / chroma_qp_offset=-4 / threads=12 / lookahead_threads=3 / sliced_threads=0 / nr=0 / decimate=1 / interlaced=0 / bluray_compat=0 / constrained_intra=0 / bframes=12 / b_pyramid=2 / b_adapt=2 / b_bias=0 / direct=3 / weightb=1 / open_gop=0 / weightp=2 / keyint=230 / keyint_min=23 / scenecut=40 / intra_refresh=0 / rc_lookahead=40 / rc=2pass / mbtree=0 / bitrate=2250 / ratetol=1.0 / qcomp=0.65 / qpmin=0 / qpmax=69 / qpstep=4 / cplxblur=20.0 / qblur=0.5 / vbv_maxrate=50000 / vbv_bufsize=62500 / nal_hrd=none / filler=0 / ip_ratio=1.40 / pb_ratio=1.30 / aq=3:0.85
    Language : English
    Default : Yes
    Forced : No

    Audio #1
    ID : 2
    Format : AC-3
    Format/Info : Audio Coding 3
    Commercial name : Dolby Digital
    Codec ID : A_AC3
    Duration : 55 min 56 s
    Bit rate mode : Constant
    Bit rate : 384 kb/s
    Channel(s) : 6 channels
    Channel layout : L R C LFE Ls Rs
    Sampling rate : 48.0 kHz
    Frame rate : 31.250 FPS (1536 SPF)
    Bit depth : 16 bits
    Compression mode : Lossy
    Stream size : 154 MiB (13%)
    Title : MVO FocusStudio
    Language : Russian
    Service kind : Complete Main
    Default : Yes
    Forced : No

    Audio #2
    ID : 3
    Format : AC-3
    Format/Info : Audio Coding 3
    Commercial name : Dolby Digital
    Codec ID : A_AC3
    Duration : 55 min 56 s
    Bit rate mode : Constant
    Bit rate : 384 kb/s
    Channel(s) : 6 channels
    Channel layout : L R C LFE Ls Rs
    Sampling rate : 48.0 kHz
    Frame rate : 31.250 FPS (1536 SPF)
    Bit depth : 16 bits
    Compression mode : Lossy
    Stream size : 154 MiB (13%)
    Language : English
    Service kind : Complete Main
    Default : No
    Forced : No
     
    • СКАЧАТЬ MAGNET
      (244,3 КБ, 0 Просмотров, Размер: 48,3 ГБ, Сидеры: 2, Личеры: 0, Золото
    • Загрузка...
    Последнее редактирование: 31 май 2020
    TFoc нравится это.
  2. Сообщение от было скрыто от публичного просмотра.
    4 фев 2020 Показать
  3. Devzz
    Devzz
    Если кому-нибудь интересно ускорить появление последних сезонов этого сериала в озвучке - пишите на [email protected]
    Т.к. проект не спонсируемый, ждать придется долго.
    3 июн 2020