Теория большого взрыва / The Big Bang Theory / Сезон: 11 / Серии: 1-4 (24) [WEB-DL 1080p]

Тема в разделе "Теория большого взрыва", создана пользователем Devzz, 24 окт 2017.

  1. Devzz

    Devzz Administrator Команда форума

    Сообщения:
    233
    Теория большого взрыва
    The Big Bang Theory

    11 сезон, 1-4 серии


    Год выпуска: 2016
    Страна: США
    Жанр: комедия
    Продолжительность: 24 х ~ 22 мин
    Озвучание: профессиональное многоголосое закадровое (FocusStudio)
    Субтитры
    : нет

    Режиссеры: Марк Сендроуски, Питер Чакос, Энтони Джозеф Рич

    В ролях: Джонни Галэки, Джим Парсонс, Кейли Куоко, Саймон Хелберг, Кунал Найяр, Майем Биалик, Мелисса Рауш, Кэрол Энн Сьюзи, Кевин Суссман, Арти Манн, Брайан Джордж, Элис Эмтер, Сара Гилберт, Джон Росс Боуи, Уил Уитон, Лори Меткаф, Верни Уотсон-Джонсон, Кристин Барански, Джошуа Малина, Кейси Сэндер, Кэти Леклерк...

    Описание: The Big Bang Theory — это, уже ставший классическим, ситком от телеканала CBS, который вышел на экраны 24 сентября 2007 года. Его популярность можно сравнить, разве что, с нестареющей классикой Друзей, который тоже шел 10 лет и, наверное, сложно найти человека, который про него не слышал. The Big Bang Theory также снимается в студии, где присутствуют зрители компаниями Chuck Lorre Productions и Warner Bros. Television.
    Главные персонажи — это два очень умных физика, Леонард и Шелдон, которые живут вместе, все знают про атомы и физику частиц, но очень мало смыслят в обычной жизни. У них есть такие же «ущербные» друзья-товарищи — озабоченый инженер Говард Воловитц и астрофизик из Индии Раджеш Кутрапали, который напрочь теряет дар речи при виде девушки. На всё это сверху добавляем разбитную красотку Пенни, которая живёт напротив Шелдона с Леонардом. Она учит их жизни, они пытаются её воспитывать. Что в итоге получается — смотрите в сериале!




    Качество: WEB-DL 1080p
    Формат: MKV
    Видео: 1920x1080 (16:9), 23.976 fps, MPEG-4 AVC ~10000-13000 kbps, 0.27 bit/pixel
    Аудио Rus: 48 kHz, AC3 Dolby Digital, 3/2 (L,C,R,l,r) + LFE ch, 640.00 kbps
    Аудио Eng: 48 kHz, AC3 Dolby Digital, 3/2 (L,C,R,l,r) + LFE ch, 640.00 kbps

    Format : Matroska
    Format version : Version 4 / Version 2
    File size : 1.66 GiB
    Duration : 20 min
    Overall bit rate mode : Variable
    Overall bit rate : 11.5 Mb/s
    Movie name : The Big Bang Theory 11x01 @ FocusStudio
    Encoded date : UTC 2017-10-24 16:21:56
    Writing application : mkvmerge v8.1.0 ('Psychedelic Postcard') 64bit
    Writing library : libebml v1.3.1 + libmatroska v1.4.2

    Video
    ID : 1
    Format : AVC
    Format/Info : Advanced Video Codec
    Format profile : [email protected]
    Format settings, CABAC : Yes
    Format settings, ReFrames : 4 frames
    Codec ID : V_MPEG4/ISO/AVC
    Duration : 20 min
    Bit rate mode : Variable
    Bit rate : 10.0 Mb/s
    Maximum bit rate : 15.0 Mb/s
    Width : 1 920 pixels
    Height : 1 080 pixels
    Display aspect ratio : 16:9
    Frame rate mode : Constant
    Frame rate : 23.976 (24000/1001) FPS
    Color space : YUV
    Chroma subsampling : 4:2:0
    Bit depth : 8 bits
    Scan type : Progressive
    Bits/(Pixel*Frame) : 0.202
    Stream size : 1.44 GiB (87%)
    Default : Yes
    Forced : No
    Color range : Limited
    Color primaries : BT.709
    Transfer characteristics : BT.709
    Matrix coefficients : BT.709

    Audio #1
    ID : 2
    Format : AC-3
    Format/Info : Audio Coding 3
    Mode extension : CM (complete main)
    Format settings, Endianness : Big
    Codec ID : A_AC3
    Duration : 20 min
    Bit rate mode : Constant
    Bit rate : 640 kb/s
    Channel(s) : 6 channels
    Channel positions : Front: L C R, Side: L R, LFE
    Sampling rate : 48.0 kHz
    Frame rate : 31.250 FPS (1536 spf)
    Compression mode : Lossy
    Stream size : 94.3 MiB (6%)
    Title : MVO FocusStudio
    Language : Russian
    Default : Yes
    Forced : No

    Audio #2
    ID : 3
    Format : AC-3
    Format/Info : Audio Coding 3
    Mode extension : CM (complete main)
    Format settings, Endianness : Big
    Codec ID : A_AC3
    Duration : 20 min
    Bit rate mode : Constant
    Bit rate : 640 kb/s
    Channel(s) : 6 channels
    Channel positions : Front: L C R, Side: L R, LFE
    Sampling rate : 48.0 kHz
    Frame rate : 31.250 FPS (1536 spf)
    Compression mode : Lossy
    Stream size : 94.3 MiB (6%)
    Language : English
    Default : No
    Forced : No
     
    • СКАЧАТЬ MAGNET
      (75,6 КБ, 778 Просмотров, Размер: 7,5 ГБ, Сидеры: 0, Личеры: 0, Золото
    • Загрузка...
    Последнее редактирование: 15 апр 2019
  2. anthraxxx
    anthraxxx
    стесняюсь спросить,а смысл?!
    25 окт 2017
    1. Devzz
      Devzz
      Первая профессиональная многоголосая озвучка со времен показа по стс.
      26 окт 2017