Охотник за разумом / Mindhunter / Сезон: 1 / Серии: 1-10 (10) [WEBRip 1080p]

Тема в разделе "Охотник за разумом", создана пользователем Devzz, 24 янв 2018.

  1. Devzz

    Devzz Administrator Команда форума

    Сообщения:
    248
    Охотник за разумом / Mindhunter
    1 сезон

    Год выпуска: 2017
    Страна: США
    Жанр: триллер, драма, криминал
    Продолжительность: 10 х ~ 40-60 мин
    Озвучание: профессиональное многоголосое закадровое, без цензуры (FocusStudio)
    Субтитры
    : нет

    Режиссёры: Дэвид Финчер, Эндрю Дуглас, Азиф Кападиа

    В ролях: Джонатан Грофф, Анна Торв, Сонни Валиченти, Холт МакКэллани, Коттер Смит, Сонни Валиченти, Ханна Гросс, Камерон Бриттон, Алекс Морф, Стэйси Рока, Джо Таттл и другие

    Описание: Молодой специальный агент ФБР Холден Форд (Джонатан Грофф) занимается переговорами с преступниками, захватившими заложников. После того как очередной разговор с убийцей закончился тем, что злоумышленник пустил себе пулю в голову, Форд приходит к выводу, что может на основе косвенных данных составить психологический портрет преступника и тем самым предугадать его последующие ходы. Агент пытается развить эту мысль, но не находит поддержки у руководства, ведь фактически он предлагает отслеживать потенциальных убийц и пресекать их деятельность ещё до совершения преступления. Зато поддержка обнаруживается в лице коллеги Билла Тенча (Холт МакКэллани), занимающегося бихевиоризмом, и университетского психолога доктора Карр (Анна Торв), исследующей поведение серийных убийц. Колеся по Америке с обучающей программой для полицейских, агенты проводят несколько любопытных интервью с содержащимися в тюрьмах преступниками и составляют психологические портреты, в которых пытаются найти закономерности, позволяющие затем останавливать потенциальных маньяков до совершения ими убийств.


    Релиз: [​IMG]



    Качество: WEBRip 1080p
    Формат: MKV
    Видео: 1920x872, 23.976 fps, MPEG-4 AVC ~5000-8000 kbps
    Аудио Rus: 48 kHz, AC3, 6 ch, 384 kbps
    Аудио Eng: 48 kHz, AC3, 6 ch, 384 kbps

    Код:
    General
    Unique ID                   : 234049436147103876367931598717781766979 (0xB01448210C2C1F38B4675BCFD9737343)
    Complete name               : Mindhunter.S01E01.WEBRip.1080p.FocusStudio.mkv
    Format                      : Matroska
    Format version              : Version 4 / Version 2
    File size                   : 3.15 GiB
    Duration                    : 1 h 0 min
    Overall bit rate            : 7 523 kb/s
    Movie name                  : Mindhunter 1x01 @ FocusStudio
    Encoded date                : UTC 2018-01-24 11:31:22
    Writing application         : mkvmerge v8.1.0 ('Psychedelic Postcard') 64bit
    Writing library             : libebml v1.3.1 + libmatroska v1.4.2
    
    Video
    ID                          : 1
    Format                      : AVC
    Format/Info                 : Advanced Video Codec
    Format profile              : [email protected]
    Format settings             : CABAC / 5 Ref Frames
    Format settings, CABAC      : Yes
    Format settings, ReFrames   : 5 frames
    Codec ID                    : V_MPEG4/ISO/AVC
    Duration                    : 1 h 0 min
    Bit rate                    : 6 605 kb/s
    Width                       : 1 920 pixels
    Height                      : 872 pixels
    Display aspect ratio        : 2.2:1
    Frame rate mode             : Constant
    Frame rate                  : 23.976 (24000/1001) FPS
    Color space                 : YUV
    Chroma subsampling          : 4:2:0
    Bit depth                   : 8 bits
    Scan type                   : Progressive
    Bits/(Pixel*Frame)          : 0.165
    Stream size                 : 2.77 GiB (88%)
    Writing library             : x264 core 148 r2744 b97ae06
    Encoding settings           : cabac=1 / ref=5 / deblock=1:-3:-3 / analyse=0x3:0x133 / me=umh / subme=10 / psy=1 / psy_rd=1.00:0.00 / mixed_ref=1 / me_range=48 / chroma_me=1 / trellis=2 / 8x8dct=1 / cqm=0 / deadzone=21,11 / fast_pskip=0 / chroma_qp_offset=-2 / threads=24 / lookahead_threads=4 / sliced_threads=0 / nr=0 / decimate=0 / interlaced=0 / bluray_compat=0 / constrained_intra=0 / bframes=9 / b_pyramid=0 / b_adapt=2 / b_bias=0 / direct=3 / weightb=1 / open_gop=0 / weightp=2 / keyint=240 / keyint_min=23 / scenecut=40 / intra_refresh=0 / rc=crf / mbtree=0 / crf=18.0 / qcomp=0.60 / qpmin=10 / qpmax=51 / qpstep=4 / ip_ratio=1.40 / pb_ratio=1.30 / aq=3:0.70
    Default                     : Yes
    Forced                      : No
    
    Audio #1
    ID                          : 2
    Format                      : AC-3
    Format/Info                 : Audio Coding 3
    Codec ID                    : A_AC3
    Duration                    : 1 h 0 min
    Bit rate mode               : Constant
    Bit rate                    : 384 kb/s
    Channel(s)                  : 6 channels
    Channel positions           : Front: L C R, Side: L R, LFE
    Sampling rate               : 48.0 kHz
    Frame rate                  : 31.250 FPS (1536 SPF)
    Bit depth                   : 16 bits
    Compression mode            : Lossy
    Stream size                 : 165 MiB (5%)
    Title                       : MVO FocusStudio
    Language                    : Russian
    Service kind                : Complete Main
    Default                     : Yes
    Forced                      : No
    
    Audio #2
    ID                          : 3
    Format                      : AC-3
    Format/Info                 : Audio Coding 3
    Codec ID                    : A_AC3
    Duration                    : 1 h 0 min
    Bit rate mode               : Constant
    Bit rate                    : 384 kb/s
    Channel(s)                  : 6 channels
    Channel positions           : Front: L C R, Side: L R, LFE
    Sampling rate               : 48.0 kHz
    Frame rate                  : 31.250 FPS (1536 SPF)
    Bit depth                   : 16 bits
    Compression mode            : Lossy
    Stream size                 : 165 MiB (5%)
    Language                    : English
    Service kind                : Complete Main
    Default                     : No
    Forced                      : No
    
     
    • СКАЧАТЬ MAGNET
      (111,4 КБ, 2.267 Просмотров, Размер: 22,1 ГБ, Сидеры: 0, Личеры: 0, Золото
    • Загрузка...
    Последнее редактирование: 15 апр 2019