Смертельный класс / Deadly class / Сезон: 1 / Серии: 1-5 (10) [WEB-DL 1080p]

Тема в разделе "Смертельный класс", создана пользователем Devzz, 1 янв 2019.

  1. Devzz

    Devzz Administrator Команда форума

    Сообщения:
    191
    Смертельный класс / Deadly class
    1 сезон 1-5 серии

    Год выпуска: 2018
    Страна: США
    Жанр: драма, мелодрама, криминал
    Продолжительность: 10 х ~ 40-50 мин
    Озвучание: профессиональное многоголосое закадровое, без цензуры (FocusX)
    Cубтитры
    : нет

    Режиссёр: Адам Кэйн, Ли Толанд Кригер, Эми Канаан Манн и другие

    В ролях: Бенжамин Вэдсворт, Шиван Уильямс, Тэйлор Хиксон, Джек Джиллетт, Хуан Грэй, Кристофер Хейердал, Майк Ковач, Лана Кондор, Мария Габриела де Фария и другие


    Описание: В центре сюжета — бездомный подросток Маркус Лопес, который случайно попадает в элитную частную школу для убийц. Там детей киллеров и знаменитых преступников учат убивать, чтобы они продолжили дело родителей. Но главный герой совершенно не похож на своих одноклассников; всё, что происходит в школе, противоречит его принципам.



    Релиз: [​IMG]


    Качество: WEB-DL 1080p
    Формат: MKV
    Видео: 1920x1080, 23.976 fps, MPEG-4 AVC ~3000 kbps avg
    Аудио Rus: 48 kHz, AC3, 6 ch, 640 kbps
    Аудио Eng: 48 kHz, AC3, 6 ch, 640 kbps

    Код:
    General
    Unique ID : 221316914380215746458931195124374444895 (0xA6801656B2FCD72597421A877B121B5F)
    Complete name : Deadly.Class.S01E01.WEB-DL.1080p.FocusX.mkv
    Format : Matroska
    Format version : Version 4
    File size : 1.56 GiB
    Duration : 53 min 25 s
    Overall bit rate : 4 189 kb/s
    Movie name : Deadly Class 1x01 @ FocusX
    Encoded date : UTC 2019-01-01 11:02:17
    Writing application : mkvmerge v8.1.0 ('Psychedelic Postcard') 64bit
    Writing library : libebml v1.3.1 + libmatroska v1.4.2
    
    Video
    ID : 1
    Format : AVC
    Format/Info : Advanced Video Codec
    Format profile : [email protected]
    Format settings : CABAC / 4 Ref Frames
    Format settings, CABAC : Yes
    Format settings, ReFrames : 4 frames
    Codec ID : V_MPEG4/ISO/AVC
    Duration : 53 min 25 s
    Bit rate : 2 825 kb/s
    Width : 1 920 pixels
    Height : 1 080 pixels
    Display aspect ratio : 16:9
    Frame rate mode : Constant
    Frame rate : 23.976 (24000/1001) FPS
    Color space : YUV
    Chroma subsampling : 4:2:0
    Bit depth : 8 bits
    Scan type : Progressive
    Bits/(Pixel*Frame) : 0.057
    Stream size : 1.05 GiB (67%)
    Default : Yes
    Forced : No
    Color range : Limited
    Color primaries : BT.709
    Transfer characteristics : BT.709
    Matrix coefficients : BT.709
    
    Audio #1
    ID : 2
    Format : AC-3
    Format/Info : Audio Coding 3
    Commercial name : Dolby Digital
    Codec ID : A_AC3
    Duration : 53 min 25 s
    Bit rate mode : Constant
    Bit rate : 640 kb/s
    Channel(s) : 6 channels
    Channel layout : L R C LFE Ls Rs
    Sampling rate : 48.0 kHz
    Frame rate : 31.250 FPS (1536 SPF)
    Bit depth : 16 bits
    Compression mode : Lossy
    Stream size : 245 MiB (15%)
    Title : MVO FocusX
    Language : Russian
    Service kind : Complete Main
    Default : Yes
    Forced : No
    
    Audio #2
    ID : 3
    Format : AC-3
    Format/Info : Audio Coding 3
    Commercial name : Dolby Digital
    Codec ID : A_AC3
    Duration : 53 min 25 s
    Bit rate mode : Constant
    Bit rate : 640 kb/s
    Channel(s) : 6 channels
    Channel layout : L R C LFE Ls Rs
    Sampling rate : 48.0 kHz
    Frame rate : 31.250 FPS (1536 SPF)
    Bit depth : 16 bits
    Compression mode : Lossy
    Stream size : 245 MiB (15%)
    Language : English
    Service kind : Complete Main
    Default : No
    Forced : No
    
     
    • СКАЧАТЬ MAGNET
      (51,8 КБ, 57 Просмотров, Размер: 10,3 ГБ, Сидеры: 1, Личеры: 0, Золото
    • Загрузка...
    Последнее редактирование: 15 апр 2019 в 11:34
  2. Driver22
    Driver22
    Серии 4 и 5 повреждены.
    13 мар 2019