Каратель / The Punisher / Сезон 1 / Серии 1-13 (13) [WEB-DL 1080p]

Тема в разделе "Каратель", создана пользователем Devzz, 22 янв 2019.

  1. Devzz

    Devzz Administrator Команда форума

    Сообщения:
    233
    Каратель
    The Punisher

    1 сезон

    Год выпуска: 2017
    Страна: США
    Жанр: драма, боевик
    Продолжительность: 13 х ~ 45-60 мин
    Озвучание: профессиональное многоголосое закадровое, без цензуры (FocusX)

    Режиссёры: Джим О’Хенлон, Джереми Уэбб, Джет Уилкинсон

    В ролях: Джон Бернтал, Эмбер Роуз Рева, Бен Барнс, Джейсон Р. Мур, Эбон Мосс-Бакрак, Флориана Лима, Джош Стюарт, Джорджиа Уигхэм, Джейми Рэй Ньюман, Коби Фрумер...

    Описание: После того, как семья Фрэнка Касла была убита во время перестрелки нескольких банд Нью-Йорка, он решает отомстить и начинает охоту на преступников города. В преступном мире он становится известен как Каратель.



    Релиз: [​IMG]


    Качество: WEB-DL
    Формат: MKV
    Видео: 1920x1080 (16:9), 23.976 fps, MPEG-4 AVC ~4000
    Аудио Rus: 48 kHz, AC3, 6 ch, ~384 kbps
    Аудио Eng: 48 kHz, AC3, 6 ch, ~384 kbps

    General
    Unique ID : 275521832834666943070514130731759692184 (0xCF4793275468B2040981E7A6B15DE998)
    Complete name : Marvels.The.Punisher.S01E01.WEB-DL.1080p.FocusX.mkv
    Format : Matroska
    Format version : Version 4
    File size : 1.43 GiB
    Duration : 51 min 23 s
    Overall bit rate mode : Variable
    Overall bit rate : 3 993 kb/s
    Movie name : Marvel's The Punisher 1x01 @ FocusX
    Encoded date : UTC 2019-01-22 19:18:40
    Writing application : mkvmerge v29.0.0 ('Like It Or Not') 64-bit
    Writing library : libebml v1.3.6 + libmatroska v1.4.9

    Video
    ID : 1
    Format : AVC
    Format/Info : Advanced Video Codec
    Format profile : [email protected]
    Format settings : CABAC / 3 Ref Frames
    Format settings, CABAC : Yes
    Format settings, ReFrames : 3 frames
    Codec ID : V_MPEG4/ISO/AVC
    Duration : 51 min 23 s
    Bit rate mode : Variable
    Bit rate : 3 145 kb/s
    Nominal bit rate : 3 320 kb/s
    Maximum bit rate : 4 980 kb/s
    Width : 1 920 pixels
    Height : 1 080 pixels
    Display aspect ratio : 16:9
    Frame rate mode : Constant
    Frame rate : 23.976 (24000/1001) FPS
    Color space : YUV
    Chroma subsampling : 4:2:0
    Bit depth : 8 bits
    Scan type : Progressive
    Bits/(Pixel*Frame) : 0.063
    Stream size : 1.13 GiB (79%)
    Writing library : x264 core 118
    Encoding settings : cabac=1 / ref=3 / deblock=1:0:0 / analyse=0x1:0x111 / me=umh / subme=10 / psy=1 / psy_rd=1.00:0.00 / mixed_ref=1 / me_range=24 / chroma_me=1 / trellis=2 / 8x8dct=0 / cqm=0 / deadzone=21,11 / fast_pskip=1 / chroma_qp_offset=-2 / threads=8 / sliced_threads=0 / nr=0 / decimate=1 / interlaced=0 / bluray_compat=0 / constrained_intra=0 / bframes=2 / b_pyramid=0 / b_adapt=2 / b_bias=0 / direct=3 / weightb=1 / open_gop=0 / weightp=2 / keyint=48 / keyint_min=25 / scenecut=0 / intra_refresh=0 / rc_lookahead=0 / rc=2pass / mbtree=1 / bitrate=3320 / ratetol=1.0 / qcomp=0.50 / qpmin=6 / qpmax=51 / qpstep=4 / cplxblur=20.0 / qblur=0.5 / vbv_maxrate=4980 / vbv_bufsize=6640 / nal_hrd=vbr / ip_ratio=1.40 / aq=1:1.00
    Default : Yes
    Forced : No

    Audio #1
    ID : 2
    Format : AC-3
    Format/Info : Audio Coding 3
    Commercial name : Dolby Digital
    Codec ID : A_AC3
    Duration : 51 min 23 s
    Bit rate mode : Constant
    Bit rate : 384 kb/s
    Channel(s) : 6 channels
    Channel layout : L R C LFE Ls Rs
    Sampling rate : 48.0 kHz
    Frame rate : 31.250 FPS (1536 SPF)
    Bit depth : 16 bits
    Compression mode : Lossy
    Stream size : 141 MiB (10%)
    Title : MVO FocusX
    Language : Russian
    Service kind : Complete Main
    Default : Yes
    Forced : No

    Audio #2
    ID : 3
    Format : AC-3
    Format/Info : Audio Coding 3
    Commercial name : Dolby Digital
    Codec ID : A_AC3
    Duration : 51 min 23 s
    Bit rate mode : Constant
    Bit rate : 384 kb/s
    Channel(s) : 6 channels
    Channel layout : L R C LFE Ls Rs
    Sampling rate : 48.0 kHz
    Frame rate : 31.250 FPS (1536 SPF)
    Bit depth : 16 bits
    Compression mode : Lossy
    Stream size : 141 MiB (10%)
    Language : English
    Service kind : Complete Main
    Default : No
    Forced : No
     
    • СКАЧАТЬ MAGNET
      (110,7 КБ, 452 Просмотров, Размер: 21,9 ГБ, Сидеры: 0, Личеры: 0, Золото
    • Загрузка...
    Последнее редактирование: 15 апр 2019
    Driver22 и rincewind1905wizzard нравится это.
  2. D-Mah
    D-Mah
    И по поводу 2-го сезона хотелось бы узнать, будет? Если да, то когда примерно хотя бы?
    16 фев 2019
  3. D-Mah
    D-Mah
    Ребят, ответьте по Карателю?
    24 фев 2019
    1. Devzz
      Devzz
      На следующей неделе зальем
      24 фев 2019
      1. D-Mah
        D-Mah
        Ок, спасибо :)
        24 фев 2019