Матрёшка / Russian Doll / Сезон: 1 / Серии: 1-8 (8) [WEBRip 1080p]

Тема в разделе "Матрёшка", создана пользователем Devzz, 3 фев 2019.

  1. Devzz

    Devzz Administrator Команда форума

    Сообщения:
    266
    Матрёшка / Russian Doll
    1 сезон

    Год выпуска: 2019
    Страна: США
    Жанр: драма, мелодрама, фантастика, комедия
    Продолжительность: 8 х ~ 20-30 мин
    Озвучание: профессиональное многоголосое закадровое, без цензуры (FocusStudio)
    Cубтитры
    : нет

    Режиссёр: Лесли Хэдланд, Джеми Бэббит, Наташа Лионн и другие

    В ролях: Наташа Лионн, Грета Ли, Ребекка Хендерсон, Элизабет Эшли, Джереми Бобб, Юл Васкес, Джордж Алой, Джессика Уитни Дэвис, Уитни Дэвлин, Брендан Секстон III и другие


    Описание: Девушка по имени Надя попадает в таинственную временную петлю, которая заставляет её посещать одну и ту же вечеринку в Нью-Йорке и в конце неё умирать, просыпаясь наутро невредимой.



    Релиз: [​IMG]


    Качество: WEBRip 1080p
    Формат: MKV
    Видео: 1920x960, 23.976 fps, MPEG-4 AVC ~13000 kbps avg
    Аудио Rus: 48 kHz, AC3, 6 ch, 640 kbps
    Аудио Eng: 48 kHz, AC3, 6 ch, 640 kbps

    Код:
    General
    Unique ID : 256035020608416106838531895103517126991 (0xC09E8D2201C8B32208E85B430E80714F)
    Complete name : Russian.Doll.S01E01.WEBRip.1080p.FocusX.mkv
    Format : Matroska
    Format version : Version 4
    File size : 2.50 GiB
    Duration : 24 min 35 s
    Overall bit rate : 14.6 Mb/s
    Movie name : Russian Doll 1x01 @ FocusX
    Encoded date : UTC 2019-02-03 12:56:47
    Writing application : mkvmerge v29.0.0 ('Like It Or Not') 64-bit
    Writing library : libebml v1.3.6 + libmatroska v1.4.9
    
    Video
    ID : 1
    Format : AVC
    Format/Info : Advanced Video Codec
    Format profile : [email protected]
    Format settings : CABAC / 4 Ref Frames
    Format settings, CABAC : Yes
    Format settings, ReFrames : 4 frames
    Codec ID : V_MPEG4/ISO/AVC
    Duration : 24 min 35 s
    Bit rate : 13.0 Mb/s
    Width : 1 920 pixels
    Height : 960 pixels
    Display aspect ratio : 2.000
    Frame rate mode : Constant
    Frame rate : 23.976 (24000/1001) FPS
    Color space : YUV
    Chroma subsampling : 4:2:0
    Bit depth : 8 bits
    Scan type : Progressive
    Bits/(Pixel*Frame) : 0.294
    Stream size : 2.23 GiB (89%)
    Writing library : x264 core 157 r2935+3 (master: 545de2f / tmod: 0f48dd4) [X86_64]
    Encoding settings : cabac=1 / ref=4 / deblock=1:-3:-3 / analyse=0x3:0x133 / me=umh / subme=11 / psy=1 / psy_rd=1.05:0.15 / mixed_ref=1 / me_range=48 / chroma_me=1 / trellis=2 / 8x8dct=1 / cqm=0 / deadzone=6,6 / fast_pskip=0 / chroma_qp_offset=-3 / threads=30 / lookahead_threads=7 / sliced_threads=0 / nr=0 / decimate=0 / interlaced=0 / bluray_compat=0 / constrained_intra=0 / bframes=10 / b_pyramid=2 / b_adapt=2 / b_bias=0 / direct=3 / weightb=1 / open_gop=0 / weightp=2 / keyint=250 / keyint_min=23 / scenecut=40 / intra_refresh=0 / rc_lookahead=60 / rc=crf / mbtree=0 / crf=20.2 / qcomp=0.70 / qpmin=0 / qpmax=69 / qpstep=4 / vbv_maxrate=62500 / vbv_bufsize=78125 / crf_max=0.0 / nal_hrd=none / filler=0 / ip_ratio=1.25 / pb_ratio=1.20 / aq=3:0.70
    Language : English
    Default : Yes
    Forced : No
    
    Audio #1
    ID : 2
    Format : AC-3
    Format/Info : Audio Coding 3
    Commercial name : Dolby Digital
    Codec ID : A_AC3
    Duration : 24 min 35 s
    Bit rate mode : Constant
    Bit rate : 640 kb/s
    Channel(s) : 6 channels
    Channel layout : L R C LFE Ls Rs
    Sampling rate : 48.0 kHz
    Frame rate : 31.250 FPS (1536 SPF)
    Bit depth : 16 bits
    Compression mode : Lossy
    Stream size : 113 MiB (4%)
    Title : MVO FocusX
    Language : Russian
    Service kind : Complete Main
    Default : Yes
    Forced : No
    
    Audio #2
    ID : 3
    Format : AC-3
    Format/Info : Audio Coding 3
    Commercial name : Dolby Digital
    Codec ID : A_AC3
    Duration : 24 min 35 s
    Bit rate mode : Constant
    Bit rate : 640 kb/s
    Channel(s) : 6 channels
    Channel layout : L R C LFE Ls Rs
    Sampling rate : 48.0 kHz
    Frame rate : 31.250 FPS (1536 SPF)
    Bit depth : 16 bits
    Compression mode : Lossy
    Stream size : 113 MiB (4%)
    Language : English
    Service kind : Complete Main
    Default : No
    Forced : No
    
     
    • СКАЧАТЬ MAGNET
      (105,9 КБ, 2.463 Просмотров, Размер: 21 ГБ, Сидеры: 1, Личеры: 0, Золото
    • Загрузка...
    Последнее редактирование: 15 апр 2019
    s_white нравится это.