АКАДЕМИЯ АМБРЕЛЛА / THE UMBRELLA ACADEMY / Сезон: 1 / Серии: 1-10 (10) [WEBRip 1080p]

Тема в разделе "АКАДЕМИЯ АМБРЕЛЛА", создана пользователем Devzz, 24 фев 2019.

  1. Devzz

    Devzz Administrator Команда форума

    Сообщения:
    191
    АКАДЕМИЯ АМБРЕЛЛА
    THE UMBRELLA ACADEMY
    1 сезон

    Год выпуска: 2018
    Страна: США
    Жанр: драма, фантастика, криминал
    Продолжительность: 10 х ~ 40-60 мин
    Озвучание: профессиональное многоголосое закадровое, без цензуры (FocusX)
    Cубтитры
    : нет

    Режиссёр: Эндрю Бернштейн, Питер Хор, Эллен Кёрас и другие

    В ролях: Бенжамин Вэдсворт, Шиван Уильямс, Тэйлор Хиксон, Джек Джиллетт, Хуан Грэй, Кристофер Хейердал, Майк Ковач, Лана Кондор, Мария Габриела де Фария и другие


    Описание: Расформированная группа супергероев воссоединяется после смерти своего приемного отца, который готовил их к спасению мира от неизвестной угрозы. Вместе они должны продолжить его дело.



    Релиз: [​IMG]


    Качество: WEBRip 1080p
    Формат: MKV
    Видео: 1920x960, 23.976 fps, MPEG-4 AVC ~8000 kbps avg
    Аудио Rus: 48 kHz, AC3, 6 ch, 640 kbps
    Аудио Eng: 48 kHz, AC3, 6 ch, 640 kbps

    Код:
    General
    Unique ID : 232342368863302225641445589449023953849 (0xAECB8336C35FD6E130DE143B0AC01BB9)
    Complete name : The.Umbrella.Academy.S01E01.WEBRip.1080p.FocusX.mkv
    Format : Matroska
    Format version : Version 4
    File size : 3.90 GiB
    Duration : 59 min 18 s
    Overall bit rate : 9 419 kb/s
    Movie name : The Umbrella Academy 1x01 @ FocusX
    Encoded date : UTC 2019-02-24 18:11:37
    Writing application : mkvmerge v29.0.0 ('Like It Or Not') 64-bit
    Writing library : libebml v1.3.6 + libmatroska v1.4.9
    
    Video
    ID : 1
    Format : AVC
    Format/Info : Advanced Video Codec
    Format profile : [email protected]
    Format settings : CABAC / 4 Ref Frames
    Format settings, CABAC : Yes
    Format settings, ReFrames : 4 frames
    Codec ID : V_MPEG4/ISO/AVC
    Duration : 59 min 18 s
    Bit rate : 7 952 kb/s
    Width : 1 920 pixels
    Height : 960 pixels
    Display aspect ratio : 2.000
    Frame rate mode : Constant
    Frame rate : 23.976 (24000/1001) FPS
    Color space : YUV
    Chroma subsampling : 4:2:0
    Bit depth : 8 bits
    Scan type : Progressive
    Bits/(Pixel*Frame) : 0.180
    Stream size : 3.29 GiB (84%)
    Writing library : x264 core 152 r2851kMod ba24899
    Encoding settings : cabac=1 / ref=4 / deblock=1:-3:-3 / analyse=0x3:0x133 / me=umh / subme=10 / psy=1 / fade_compensate=0.00 / psy_rd=1.00:0.00 / mixed_ref=1 / me_range=48 / chroma_me=1 / trellis=2 / 8x8dct=1 / cqm=0 / deadzone=21,11 / fast_pskip=0 / chroma_qp_offset=-2 / threads=18 / lookahead_threads=3 / sliced_threads=0 / nr=0 / decimate=0 / interlaced=0 / bluray_compat=0 / constrained_intra=0 / bframes=8 / b_pyramid=2 / b_adapt=2 / b_bias=0 / direct=3 / weightb=1 / open_gop=0 / weightp=2 / keyint=250 / keyint_min=23 / scenecut=40 / intra_refresh=0 / rc=crf / mbtree=0 / crf=17.0000 / qcomp=0.60 / qpmin=0 / qpmax=69 / qpstep=4 / ip_ratio=1.30 / pb_ratio=1.20 / aq=3:0.80
    Language : English
    Default : Yes
    Forced : No
    
    Audio #1
    ID : 2
    Format : AC-3
    Format/Info : Audio Coding 3
    Commercial name : Dolby Digital
    Codec ID : A_AC3
    Duration : 59 min 18 s
    Bit rate mode : Constant
    Bit rate : 640 kb/s
    Channel(s) : 6 channels
    Channel layout : L R C LFE Ls Rs
    Sampling rate : 48.0 kHz
    Frame rate : 31.250 FPS (1536 SPF)
    Bit depth : 16 bits
    Compression mode : Lossy
    Stream size : 271 MiB (7%)
    Title : MVO FocusX
    Language : Russian
    Service kind : Complete Main
    Default : Yes
    Forced : No
    
    Audio #2
    ID : 3
    Format : AC-3
    Format/Info : Audio Coding 3
    Commercial name : Dolby Digital
    Codec ID : A_AC3
    Duration : 59 min 18 s
    Bit rate mode : Constant
    Bit rate : 640 kb/s
    Channel(s) : 6 channels
    Channel layout : L R C LFE Ls Rs
    Sampling rate : 48.0 kHz
    Frame rate : 31.250 FPS (1536 SPF)
    Bit depth : 16 bits
    Compression mode : Lossy
    Stream size : 271 MiB (7%)
    Language : English
    Service kind : Complete Main
    Default : No
    Forced : No
    
     
    • СКАЧАТЬ MAGNET
      (206,5 КБ, 57 Просмотров, Размер: 41,1 ГБ, Сидеры: 1, Личеры: 0, Золото
    • Загрузка...
    Последнее редактирование: 15 апр 2019 в 11:34