Каратель / The Punisher / Сезон 2 / Серии 1-13 (13) [WEB-DL 1080p]

Тема в разделе "Каратель", создана пользователем Devzz, 25 фев 2019.

  1. Devzz

    Devzz Administrator Команда форума

    Сообщения:
    209
    Каратель
    The Punisher

    2 сезон

    Год выпуска: 2019
    Страна: США
    Жанр: драма, боевик
    Продолжительность: 13 х ~ 45-60 мин
    Озвучание: профессиональное многоголосое закадровое, без цензуры (FocusX)

    Режиссёры: Джим О’Хенлон, Джереми Уэбб, Джет Уилкинсон

    В ролях: Джон Бернтал, Эмбер Роуз Рева, Бен Барнс, Джейсон Р. Мур, Эбон Мосс-Бакрак, Флориана Лима, Джош Стюарт, Джорджиа Уигхэм, Джейми Рэй Ньюман, Коби Фрумер...

    Описание: После того, как семья Фрэнка Касла была убита во время перестрелки нескольких банд Нью-Йорка, он решает отомстить и начинает охоту на преступников города. В преступном мире он становится известен как Каратель.



    Релиз: [​IMG]


    Качество: WEB-DL
    Формат: MKV
    Видео: 1920x1080 (16:9), 23.976 fps, MPEG-4 AVC ~4000
    Аудио Rus: 48 kHz, AC3, 6 ch, ~640 kbps
    Аудио Eng: 48 kHz, AC3, 6 ch, ~640 kbps

    General
    Unique ID : 114921291943435860615697175972149385694 (0x567509264444997521ADF1AD43A2D9DE)
    Complete name : The.Punisher.S02E01.WEB-DL.1080p.FocusX.mkv
    Format : Matroska
    Format version : Version 4
    File size : 1.73 GiB
    Duration : 53 min 9 s
    Overall bit rate mode : Variable
    Overall bit rate : 4 654 kb/s
    Movie name : Marvel's The Punisher 2x01 @ FocusX
    Encoded date : UTC 2019-02-25 12:34:13
    Writing application : mkvmerge v29.0.0 ('Like It Or Not') 64-bit
    Writing library : libebml v1.3.6 + libmatroska v1.4.9

    Video
    ID : 1
    Format : AVC
    Format/Info : Advanced Video Codec
    Format profile : [email protected]
    Format settings : CABAC / 3 Ref Frames
    Format settings, CABAC : Yes
    Format settings, ReFrames : 3 frames
    Codec ID : V_MPEG4/ISO/AVC
    Duration : 53 min 9 s
    Bit rate mode : Variable
    Bit rate : 3 282 kb/s
    Nominal bit rate : 3 480 kb/s
    Maximum bit rate : 5 220 kb/s
    Width : 1 920 pixels
    Height : 1 080 pixels
    Display aspect ratio : 16:9
    Frame rate mode : Constant
    Frame rate : 23.976 (24000/1001) FPS
    Color space : YUV
    Chroma subsampling : 4:2:0
    Bit depth : 8 bits
    Scan type : Progressive
    Bits/(Pixel*Frame) : 0.066
    Stream size : 1.22 GiB (71%)
    Writing library : x264 core 148 r2715 7e75228
    Encoding settings : cabac=1 / ref=3 / deblock=1:0:0 / analyse=0x1:0x111 / me=umh / subme=10 / psy=1 / psy_rd=1.00:0.00 / mixed_ref=1 / me_range=24 / chroma_me=1 / trellis=2 / 8x8dct=0 / cqm=0 / deadzone=21,11 / fast_pskip=1 / chroma_qp_offset=-2 / threads=6 / lookahead_threads=1 / sliced_threads=0 / nr=0 / decimate=1 / interlaced=0 / bluray_compat=0 / stitchable=1 / constrained_intra=0 / bframes=2 / b_pyramid=0 / b_adapt=2 / b_bias=0 / direct=3 / weightb=1 / open_gop=0 / weightp=2 / keyint=48 / keyint_min=25 / scenecut=0 / intra_refresh=0 / rc_lookahead=48 / rc=2pass / mbtree=1 / bitrate=3480 / ratetol=1.0 / qcomp=0.50 / qpmin=6 / qpmax=51 / qpstep=4 / cplxblur=20.0 / qblur=0.5 / vbv_maxrate=5220 / vbv_bufsize=6960 / nal_hrd=vbr / filler=0 / ip_ratio=1.40 / aq=1:1.00
    Default : Yes
    Forced : No

    Audio #1
    ID : 2
    Format : AC-3
    Format/Info : Audio Coding 3
    Commercial name : Dolby Digital
    Codec ID : A_AC3
    Duration : 53 min 9 s
    Bit rate mode : Constant
    Bit rate : 640 kb/s
    Channel(s) : 6 channels
    Channel layout : L R C LFE Ls Rs
    Sampling rate : 48.0 kHz
    Frame rate : 31.250 FPS (1536 SPF)
    Bit depth : 16 bits
    Compression mode : Lossy
    Stream size : 243 MiB (14%)
    Title : MVO FocusX
    Language : Russian
    Service kind : Complete Main
    Default : Yes
    Forced : No

    Audio #2
    ID : 3
    Format : AC-3
    Format/Info : Audio Coding 3
    Commercial name : Dolby Digital
    Codec ID : A_AC3
    Duration : 53 min 9 s
    Bit rate mode : Constant
    Bit rate : 640 kb/s
    Channel(s) : 6 channels
    Channel layout : L R C LFE Ls Rs
    Sampling rate : 48.0 kHz
    Frame rate : 31.250 FPS (1536 SPF)
    Bit depth : 16 bits
    Compression mode : Lossy
    Stream size : 243 MiB (14%)
    Language : English
    Service kind : Complete Main
    Default : No
    Forced : No
     
    • СКАЧАТЬ MAGNET
      (129,7 КБ, 139 Просмотров, Размер: 25,7 ГБ, Сидеры: 1, Личеры: 0, Золото
    • Загрузка...
    Последнее редактирование: 15 апр 2019
  2. D-Mah
    D-Mah
    Круто, спасибо!!)) Качаем)
    25 фев 2019
  3. D-Mah
    D-Mah
    А можно узнать, какие еще сериалы в ближайших планах у студии Фокус? заранее спс!
    3 мар 2019
    1. Devzz
      Devzz
      Смотря какие вас интересуют)
      7 мар 2019
      1. D-Mah
        D-Mah
        Второго сезона Тин Стар нет в планах случаем?)
        8 мар 2019
        1. Devzz
          Devzz
          есть
          8 мар 2019
  4. D-Mah
    D-Mah
    мм, новость отличная) еще бы знать хотя б примерно когда
    8 мар 2019