Мистер Посредник / Mr Inbetween / Сезон: 1 / Серии: 1-6 (6) [WEB-DL 1080p]

Тема в разделе "Мистер Посредник", создана пользователем Devzz, 7 мар 2019.

  1. Devzz

    Devzz Administrator Команда форума

    Сообщения:
    202
    Мистер Посредник
    Mr Inbetween
    1 сезон

    Год выпуска: 2018
    Страна: Австралия
    Жанр: драма, криминал
    Продолжительность: 6 х ~ 30 мин
    Озвучание: профессиональное многоголосое закадровое, без цензуры (FocusX)
    Cубтитры
    : нет

    Режиссёр: Нэш Эдгертон

    В ролях: Скотт Райан, Дэймон Херриман, Джастин Росниак, Брук Сатчуэлл, Николас Кассим, Дориан Нконо, Лиззи Шебеста, Джексон Тозер и другие


    Описание: Рэй Шусмит — отец, бывший муж, любовник и лучший друг. Ему нелегко справляться со всеми этими ролями в современном мире, полном насилия и криминала и в то же время пропагандирующем любовь и всеобщую толерантность. Ещё труднее Рэю оттого, что он — наёмный убийца.



    Релиз: [​IMG]


    Качество: WEB-DL 1080p
    Формат: MKV
    Видео: 1920x1080, 23.976 fps, MPEG-4 AVC ~11000 kbps avg
    Аудио Rus: 48 kHz, AC3, 6 ch, 640 kbps
    Аудио Eng: 48 kHz, AC3, 6 ch, 640 kbps

    Код:
    General
    Unique ID : 237166128710061317169829005483172855218 (0xB26C88EFB632B93EB0FABFAD37827DB2)
    Complete name : Mr.Inbetween.S01E01.WEB-DL.1080p.FocusX.mkv
    Format : Matroska
    Format version : Version 4
    File size : 2.62 GiB
    Duration : 28 min 41 s
    Overall bit rate : 13.1 Mb/s
    Movie name : Mr Inbetween 1x01 @ FocusX
    Encoded date : UTC 2019-03-07 17:41:51
    Writing application : mkvmerge v29.0.0 ('Like It Or Not') 64-bit
    Writing library : libebml v1.3.6 + libmatroska v1.4.9
    
    Video
    ID : 1
    Format : AVC
    Format/Info : Advanced Video Codec
    Format profile : [email protected]
    Format settings : CABAC / 4 Ref Frames
    Format settings, CABAC : Yes
    Format settings, ReFrames : 4 frames
    Codec ID : V_MPEG4/ISO/AVC
    Duration : 28 min 41 s
    Bit rate : 11.5 Mb/s
    Width : 1 920 pixels
    Height : 1 080 pixels
    Display aspect ratio : 16:9
    Frame rate mode : Constant
    Frame rate : 23.976 (24000/1001) FPS
    Color space : YUV
    Chroma subsampling : 4:2:0
    Bit depth : 8 bits
    Scan type : Progressive
    Bits/(Pixel*Frame) : 0.232
    Stream size : 2.31 GiB (88%)
    Default : Yes
    Forced : No
    Color range : Limited
    Color primaries : BT.709
    Transfer characteristics : BT.709
    Matrix coefficients : BT.709
    
    Audio #1
    ID : 2
    Format : AC-3
    Format/Info : Audio Coding 3
    Commercial name : Dolby Digital
    Codec ID : A_AC3
    Duration : 28 min 41 s
    Bit rate mode : Constant
    Bit rate : 640 kb/s
    Channel(s) : 6 channels
    Channel layout : L R C LFE Ls Rs
    Sampling rate : 48.0 kHz
    Frame rate : 31.250 FPS (1536 SPF)
    Bit depth : 16 bits
    Compression mode : Lossy
    Stream size : 131 MiB (5%)
    Title : MVO FocusX
    Language : Russian
    Service kind : Complete Main
    Default : Yes
    Forced : No
    
    Audio #2
    ID : 3
    Format : AC-3
    Format/Info : Audio Coding 3
    Commercial name : Dolby Digital
    Codec ID : A_AC3
    Duration : 28 min 41 s
    Bit rate mode : Constant
    Bit rate : 640 kb/s
    Channel(s) : 6 channels
    Channel layout : L R C LFE Ls Rs
    Sampling rate : 48.0 kHz
    Frame rate : 31.250 FPS (1536 SPF)
    Bit depth : 16 bits
    Compression mode : Lossy
    Stream size : 131 MiB (5%)
    Language : English
    Service kind : Complete Main
    Default : No
    Forced : No
    
     
    • СКАЧАТЬ MAGNET
      (66,7 КБ, 83 Просмотров, Размер: 13,2 ГБ, Сидеры: 1, Личеры: 0, Золото
    • Загрузка...
    Последнее редактирование: 15 апр 2019