Сеньор Авила / Sr. Avila / Сезон 1 / Серии 1-3 [WEBRip 1080p]

Тема в разделе "Сеньор Авила", создана пользователем Devzz, 13 июл 2017.

  1. Devzz

    Devzz Administrator Команда форума

    Сообщения:
    204
    Сеньор Авила / Sr. Avila
    1 сезон, 1-3 серии


    Год выпуска: 2013
    Страна: Мексика
    Жанр: драма, криминал, триллер
    Продолжительность: 13 х ~ 45-60 мин
    Озвучание: профессиональное многоголосое закадровое, без цензуры (FocusStudio)
    Субтитры
    : нет

    Режиссёры: Фернандо Ровзар, Алехандро Лосано, Альфонсо Пинеда Ульоа

    В ролях: Тони Далтон, Карлос Арагон, Камила Сельсер, Хуан Карлос Ремолина, Наилея Норвинд, Эмилио Герерро, Адриан Алонсо, Ильса Салас, Хорхе Кабаллеро, Эрнан Мендоса и др.

    Описание: Главный герой успешно совмещает две работы и семейную рутину. Являясь представителем среднего класса, работающим в страховой компании для большинства знакомых и собственной семьи, Авила также подрабатывает киллером в криминальной организации. Внезапно в его жизни появляется проблемный подросток Исмаил, который может все испортить, однако Авила вынужден взять его в ученики.


    Релиз: [​IMG]

    Качество: WEBRip 1080p
    Формат: MKV
    Видео: 1920x1080 (16:9), 23.976 fps, MPEG-4 AVC ~5000 kbps
    Аудио Rus: 48 kHz, AC-3, 2 ch, 224 kbps
    Аудио Eng: 48 kHz, AC-3, 2 ch, 224 kbps

    Format : Matroska
    Format version : Version 4 / Version 2
    File size : 1.72 GiB
    Duration : 52 min
    Overall bit rate mode : Variable
    Overall bit rate : 4 682 kb/s
    Movie name : Sr. Avila 1x01 @ FocusStudio
    Encoded date : UTC 2017-07-11 17:43:32
    Writing application : mkvmerge v8.1.0 ('Psychedelic Postcard') 64bit
    Writing library : libebml v1.3.1 + libmatroska v1.4.2

    Video
    ID : 1
    Format : AVC
    Format/Info : Advanced Video Codec
    Format profile : [email protected]
    Format settings, CABAC : Yes
    Format settings, ReFrames : 4 frames
    Codec ID : V_MPEG4/ISO/AVC
    Duration : 52 min
    Bit rate mode : Variable
    Bit rate : 4 140 kb/s
    Maximum bit rate : 5 000 kb/s
    Width : 1 920 pixels
    Height : 1 080 pixels
    Display aspect ratio : 16:9
    Frame rate mode : Constant
    Frame rate : 23.976 (24000/1001) FPS
    Standard : Component
    Color space : YUV
    Coma subsampling : 4:2:0
    Bit depth : 8 bits
    Scan type : Progressive
    Bits/(Pixel*Frame) : 0.083
    Stream size : 1.52 GiB (88%)
    Language : Spanish
    Default : Yes
    Forced : No
    Color range : Limited
    Color primaries : BT.709
    Transfer characteristics : BT.709
    Matrix coefficients : BT.709

    Audio #1
    ID : 2
    Format : AC-3
    Format/Info : Audio Coding 3
    Mode extension : CM (complete main)
    Format settings, Endianness : Big
    Codec ID : A_AC3
    Duration : 52 min
    Bit rate mode : Constant
    Bit rate : 224 kb/s
    Channel(s) : 2 channels
    Channel positions : Front: L R
    Sampling rate : 48.0 kHz
    Frame rate : 31.250 FPS (1536 spf)
    Compression mode : Lossy
    Stream size : 84.4 MiB (5%)
    Title : MVO FocusStudio
    Language : Russian
    Default : Yes
    Forced : No

    Audio #2
    ID : 3
    Format : AC-3
    Format/Info : Audio Coding 3
    Mode extension : CM (complete main)
    Format settings, Endianness : Big
    Codec ID : A_AC3
    Duration : 52 min
    Bit rate mode : Constant
    Bit rate : 224 kb/s
    Channel(s) : 2 channels
    Channel positions : Front: L R
    Sampling rate : 48.0 kHz
    Frame rate : 31.250 FPS (1536 spf)
    Compression mode : Lossy
    Stream size : 84.4 MiB (5%)
    Language : Spanish
    Default : No
    Forced : No
     
    • СКАЧАТЬ MAGNET
      (50,8 КБ, 588 Просмотров, Размер: 5 ГБ, Сидеры: 0, Личеры: 0, Золото
    • Загрузка...
    Последнее редактирование: 15 апр 2019
  2. killer99xxx
    killer99xxx
    Спасибо! будем посмотреть
    15 июл 2017