Берлинская Резидентура / Berlin Station / Сезон 1 / Серии 1-10 (10) [WEBRip 1080p]

Тема в разделе "Берлинская резидентура", создана пользователем Devzz, 12 фев 2019.

  1. Devzz

    Devzz Administrator Команда форума

    Сообщения:
    214
    Берлинская Резидентура
    Berlin Station

    1 сезон

    Год выпуска: 2016
    Страна: США / Германия
    Жанр: триллер, драма, детектив
    Продолжительность: 10 х ~ 45-60 мин
    Озвучание: профессиональное многоголосое закадровое, без цензуры (FocusX)

    Режиссёры: Кристоф Шреве, Джузеппе Капотонди, Джон Дэвид Коулз и другие

    В ролях: Лиленд Орсер, Мишель Форбс, Мина Тандер, Ричард Армитедж, Рис Иванс, Ричард Дженкинс, Кеке Палмер, Эшли Джадд, Тэмлин Томита, Роджер Рингроуз...

    Описание: Главный герой сериала Даниэль Мейер, недавно получивший должность следователя, прибывает в резидентуру ЦРУ в Берлине, чтобы раскрыть источник утечки, который снабжает информацией доносчика. Под руководством опытного следователя-ветерана Гектора ДеЖана — упрямого агента с мрачным очарованием, который работает на шефа резидентуры Стивена Фроста — Дэниел учится правилам игры в суровом мире профессиональных агентов, полном опасностей, предательства, моральных компромиссов.



    Релиз: [​IMG]


    Качество: WEBRip
    Формат: MKV
    Видео: 1920x1080 (16:9), 23.976 fps, MPEG-4 AVC ~8000
    Аудио Rus: 48 kHz, AC3, 6 ch, ~640 kbps
    Аудио Eng: 48 kHz, AC3, 6 ch, ~640 kbps

    General
    Unique ID : 57945573038002516249193631246990336558 (0x2B97E9533477204CFEA484DB5B0A622E)
    Complete name : Berlin.Station.S01E01.WEBRip.1080p.FocusX.mkv
    Format : Matroska
    Format version : Version 4
    File size : 3.99 GiB
    Duration : 53 min 26 s
    Overall bit rate : 10.7 Mb/s
    Movie name : Berlin Station 1x01 @ FocusStudio
    Encoded date : UTC 2019-02-12 19:40:45
    Writing application : mkvmerge v29.0.0 ('Like It Or Not') 64-bit
    Writing library : libebml v1.3.6 + libmatroska v1.4.9

    Video
    ID : 1
    Format : AVC
    Format/Info : Advanced Video Codec
    Format profile : [email protected]
    Format settings : CABAC / 4 Ref Frames
    Format settings, CABAC : Yes
    Format settings, ReFrames : 4 frames
    Codec ID : V_MPEG4/ISO/AVC
    Duration : 53 min 26 s
    Bit rate : 9 197 kb/s
    Width : 1 920 pixels
    Height : 1 080 pixels
    Display aspect ratio : 16:9
    Frame rate mode : Constant
    Frame rate : 23.976 (24000/1001) FPS
    Color space : YUV
    Chroma subsampling : 4:2:0
    Bit depth : 8 bits
    Scan type : Progressive
    Bits/(Pixel*Frame) : 0.185
    Stream size : 3.43 GiB (86%)
    Writing library : x264 core 148 r2744 b97ae06
    Encoding settings : cabac=1 / ref=4 / deblock=1:-3:-3 / analyse=0x3:0x133 / me=umh / subme=11 / psy=1 / psy_rd=1.00:0.00 / mixed_ref=1 / me_range=48 / chroma_me=1 / trellis=2 / 8x8dct=1 / cqm=0 / deadzone=21,11 / fast_pskip=0 / chroma_qp_offset=-2 / threads=12 / lookahead_threads=2 / sliced_threads=0 / nr=0 / decimate=0 / interlaced=0 / bluray_compat=0 / constrained_intra=0 / bframes=9 / b_pyramid=2 / b_adapt=2 / b_bias=0 / direct=3 / weightb=1 / open_gop=0 / weightp=2 / keyint=250 / keyint_min=23 / scenecut=40 / intra_refresh=0 / rc=crf / mbtree=0 / crf=17.0 / qcomp=0.60 / qpmin=0 / qpmax=69 / qpstep=4 / ip_ratio=1.30 / pb_ratio=1.20 / aq=3:0.70
    Language : English
    Default : Yes
    Forced : No

    Audio #1
    ID : 2
    Format : AC-3
    Format/Info : Audio Coding 3
    Commercial name : Dolby Digital
    Codec ID : A_AC3
    Duration : 53 min 26 s
    Bit rate mode : Constant
    Bit rate : 640 kb/s
    Channel(s) : 6 channels
    Channel layout : L R C LFE Ls Rs
    Sampling rate : 48.0 kHz
    Frame rate : 31.250 FPS (1536 SPF)
    Bit depth : 16 bits
    Compression mode : Lossy
    Stream size : 245 MiB (6%)
    Title : MVO FocusX
    Language : Russian
    Service kind : Complete Main
    Default : Yes
    Forced : No

    Audio #2
    ID : 3
    Format : AC-3
    Format/Info : Audio Coding 3
    Commercial name : Dolby Digital
    Codec ID : A_AC3
    Duration : 53 min 26 s
    Bit rate mode : Constant
    Bit rate : 640 kb/s
    Channel(s) : 6 channels
    Channel layout : L R C LFE Ls Rs
    Sampling rate : 48.0 kHz
    Frame rate : 31.250 FPS (1536 SPF)
    Bit depth : 16 bits
    Compression mode : Lossy
    Stream size : 245 MiB (6%)
    Language : English
    Service kind : Complete Main
    Default : No
    Forced : No
     
    • СКАЧАТЬ MAGNET
      (173,2 КБ, 166 Просмотров, Размер: 34,4 ГБ, Сидеры: 1, Личеры: 0, Золото
    • Загрузка...
    Последнее редактирование: 15 апр 2019
  2. TFoc
    TFoc
    В седьмую серию забыли добавить видеодорожку
    16 июн 2019