Доктор Блейк | The Doctor Blake Mysteries | Сезон 2 | Серии 1-10 (10) [WEB-DL 1080p]

Тема в разделе "Доктор Блейк", создана пользователем Devzz, 29 апр 2019.

  1. Devzz

    Devzz Administrator Команда форума

    Сообщения:
    199
    Доктор Блейк
    The Doctor Blake Mysteries

    2 сезон

    Год выпуска: 2014
    Страна: Австралия
    Жанр: триллер, драма, детектив
    Продолжительность: 10 х ~ 45-60 мин
    Озвучание: профессиональное многоголосое закадровое (FocusX)

    Режиссёры: Йен Бэрри, Деклан Имис, Фиона Бэнкс и другие

    В ролях: Крейг МакЛоклен, Надин Гарнер, Чарли Казинс, Джоэль Тобек, Белинда МакКлори, Кейт Вульф, Джон Вуд, Дэвид Уайтели, Анна МакГахэн...

    Описание: Доктор Люсьен Блейк покинул родной городок Балларат ещё молодым. Сейчас он возвращается в него, чтобы унаследовать медицинскую практику своего упокоившегося отца с вызовами на места преступления. В 1959-ом году богатств времён золотой лихорадки, которой он обязан своей роскошной архитектурой, в городе давно нет, но тайны, убийства и обман, остались ещё со времён его былой славы.



    Релиз: [​IMG]


    Качество: WEB-DL
    Формат: MKV
    Видео: 1920x1080 (16:9), 25 fps, MPEG-4 AVC ~6000
    Аудио Rus: 48 kHz, AC3, 2 ch, ~224 kbps

    General
    Unique ID : 219036874923086298249209449697433032242 (0xA4C8F7B6DB936E46938B6FB9E2531632)
    Complete name : The.Doctor.Blake.Mysteries.S02E01.WEB-DL.1080p.INTERFiLM.mkv
    Format : Matroska
    Format version : Version 4
    File size : 3.12 GiB
    Duration : 56 min 36 s
    Overall bit rate mode : Variable
    Overall bit rate : 7 896 kb/s
    Movie name : Doctor Blake 2x01 @ FocusX
    Encoded date : UTC 2019-04-27 16:13:39
    Writing application : mkvmerge v8.1.0 ('Psychedelic Postcard') 64bit
    Writing library : libebml v1.3.1 + libmatroska v1.4.2

    Video
    ID : 1
    Format : AVC
    Format/Info : Advanced Video Codec
    Format profile : [email protected]
    Format settings : CABAC / 4 Ref Frames
    Format settings, CABAC : Yes
    Format settings, ReFrames : 4 frames
    Codec ID : V_MPEG4/ISO/AVC
    Duration : 56 min 36 s
    Bit rate mode : Variable
    Bit rate : 7 515 kb/s
    Maximum bit rate : 15.0 Mb/s
    Width : 1 920 pixels
    Height : 1 080 pixels
    Display aspect ratio : 16:9
    Frame rate mode : Constant
    Frame rate : 25.000 FPS
    Color space : YUV
    Chroma subsampling : 4:2:0
    Bit depth : 8 bits
    Scan type : Progressive
    Bits/(Pixel*Frame) : 0.145
    Stream size : 2.97 GiB (95%)
    Writing library : x264 core 148 r2623 d5b2374
    Encoding settings : cabac=1 / ref=4 / deblock=1:-1:-1 / analyse=0x3:0x133 / me=umh / subme=9 / psy=1 / psy_rd=1.00:0.15 / mixed_ref=1 / me_range=24 / chroma_me=1 / trellis=2 / 8x8dct=1 / cqm=0 / deadzone=21,11 / fast_pskip=1 / chroma_qp_offset=-3 / threads=34 / lookahead_threads=5 / sliced_threads=0 / nr=150 / decimate=1 / interlaced=0 / bluray_compat=0 / constrained_intra=0 / bframes=8 / b_pyramid=2 / b_adapt=2 / b_bias=0 / direct=3 / weightb=1 / open_gop=0 / weightp=2 / keyint=125 / keyint_min=63 / scenecut=0 / intra_refresh=0 / rc_lookahead=125 / rc=crf / mbtree=1 / crf=18.0 / qcomp=0.60 / qpmin=0 / qpmax=69 / qpstep=4 / vbv_maxrate=15000 / vbv_bufsize=31250 / crf_max=0.0 / nal_hrd=vbr / filler=0 / ip_ratio=1.40 / aq=3:1.00
    Default : Yes
    Forced : No
    Color range : Limited
    Color primaries : BT.709
    Transfer characteristics : BT.709
    Matrix coefficients : BT.709

    Audio
    ID : 2
    Format : AC-3
    Format/Info : Audio Coding 3
    Commercial name : Dolby Digital
    Codec ID : A_AC3
    Duration : 56 min 36 s
    Bit rate mode : Constant
    Bit rate : 224 kb/s
    Channel(s) : 2 channels
    Channel layout : L R
    Sampling rate : 48.0 kHz
    Frame rate : 31.250 FPS (1536 SPF)
    Bit depth : 16 bits
    Compression mode : Lossy
    Stream size : 90.7 MiB (3%)
    Title : MVO FocusX
    Language : Russian
    Service kind : Complete Main
    Default : Yes
    Forced : No
     
    • СКАЧАТЬ MAGNET
      (140,8 КБ, 20 Просмотров, Размер: 27,9 ГБ, Сидеры: 1, Личеры: 0, Золото
    • Загрузка...