Футурама / Futurama / Пилот [DVDRip 1080p]

Тема в разделе "Футурама", создана пользователем Devzz, 18 апр 2019.

  1. Devzz

    Devzz Administrator Команда форума

    Сообщения:
    199
    ФУТУРАМА | FUTURAMA
    ПИЛОТ

    Год выпуска: 1999
    Страна: США
    Жанр: мультфильм, комедия, драма, фантастика
    Продолжительность: 00:23:18
    Озвучание: профессиональное многоголосое закадровое (FocusX)

    Режиссёры: Питер Аванзино, Брэт Хааланд, Грегг Ванцо и другие

    В ролях: Билли Уэст, Кэти Сагал, Джон Ди Маджио, Тресс МакНилл, Фил ЛаМарр, Лорен Том, Морис ЛаМарш, Дэвид Херман, Фрэнк Уэлкер, Кэт Суси и другие

    Описание:
    1941 год. Во Франции правит Наполеон VI и паровые технологии, потому что уже на протяжении многих лет во всём мире пропадают выдающиеся учёные, и электричество так и не было открыто. Когда Аврил была маленькой, её родители пытались получить эликсир бессмертия, но тоже исчезли таинственным образом. От семьи у девушки остался только говорящий кот, и с тех пор она пытается воссоздать тот эликсир.


    Релиз: [​IMG]



    Качество: DVDRip Upscale
    Формат: MKV
    Видео: 1424x1080 (4:3), 23.976 fps, MPEG-4 AVC ~3500 kbps
    Аудио Rus: 48 kHz, AC3 Dolby Digital, 2.0 (L,R), 192 kbps
    Аудио Eng: 48 kHz, AC3 Dolby Digital, 2.0 (L,R), 192 kbps


    Код:
    General
    Unique ID                   : 239027950412154293412823882648364976329 (0xB3D31BD55D348326B4C797C03C7708C9)
    Complete name               : Futurama.S01E01.Space.Pilot.3000.DVDRip.1080p.Upscale.INTERFiLM.mkv
    Format                      : Matroska
    Format version              : Version 4
    File size                   : 685 MiB
    Duration                    : 23 min 18 s
    Overall bit rate            : 4 105 kb/s
    Movie name                  : Futurama 1x01 @ FocusX
    Encoded date                : UTC 2019-04-18 16:15:42
    Writing application         : mkvmerge v8.1.0 ('Psychedelic Postcard') 64bit
    Writing library             : libebml v1.3.1 + libmatroska v1.4.2
    
    Video
    ID                          : 1
    Format                      : AVC
    Format/Info                 : Advanced Video Codec
    Format profile              : [email protected]
    Format settings             : CABAC / 16 Ref Frames
    Format settings, CABAC      : Yes
    Format settings, ReFrames   : 16 frames
    Codec ID                    : V_MPEG4/ISO/AVC
    Duration                    : 23 min 18 s
    Bit rate                    : 3 639 kb/s
    Width                       : 1 424 pixels
    Height                      : 1 080 pixels
    Display aspect ratio        : 4:3
    Frame rate mode             : Constant
    Frame rate                  : 23.976 (24000/1001) FPS
    Color space                 : YUV
    Chroma subsampling          : 4:2:0
    Bit depth                   : 8 bits
    Scan type                   : Progressive
    Bits/(Pixel*Frame)          : 0.099
    Stream size                 : 607 MiB (89%)
    Writing library             : x264 core 152 r2851 ba24899
    Encoding settings           : cabac=1 / ref=16 / deblock=1:1:1 / analyse=0x3:0x133 / me=tesa / subme=11 / psy=1 / psy_rd=0.40:0.00 / mixed_ref=1 / me_range=24 / chroma_me=1 / trellis=2 / 8x8dct=1 / cqm=0 / deadzone=21,11 / fast_pskip=0 / chroma_qp_offset=-2 / threads=34 / lookahead_threads=8 / sliced_threads=0 / nr=0 / decimate=1 / interlaced=0 / bluray_compat=0 / constrained_intra=0 / bframes=16 / b_pyramid=2 / b_adapt=2 / b_bias=0 / direct=3 / weightb=1 / open_gop=0 / weightp=2 / keyint=250 / keyint_min=23 / scenecut=40 / intra_refresh=0 / rc=crf / mbtree=0 / crf=15.0 / qcomp=0.60 / qpmin=0 / qpmax=69 / qpstep=4 / ip_ratio=1.40 / pb_ratio=1.30 / aq=1:0.60
    Language                    : English
    Default                     : Yes
    Forced                      : No
    
    Audio #1
    ID                          : 2
    Format                      : AC-3
    Format/Info                 : Audio Coding 3
    Commercial name             : Dolby Digital
    Codec ID                    : A_AC3
    Duration                    : 23 min 18 s
    Bit rate mode               : Constant
    Bit rate                    : 192 kb/s
    Channel(s)                  : 2 channels
    Channel layout              : L R
    Sampling rate               : 48.0 kHz
    Frame rate                  : 31.250 FPS (1536 SPF)
    Bit depth                   : 16 bits
    Compression mode            : Lossy
    Stream size                 : 32.0 MiB (5%)
    Title                       : MVO FocusX
    Language                    : Russian
    Service kind                : Complete Main
    Default                     : Yes
    Forced                      : No
    
    Audio #2
    ID                          : 3
    Format                      : AC-3
    Format/Info                 : Audio Coding 3
    Commercial name             : Dolby Digital
    Codec ID                    : A_AC3
    Duration                    : 23 min 18 s
    Bit rate mode               : Constant
    Bit rate                    : 192 kb/s
    Channel(s)                  : 2 channels
    Channel layout              : L R
    Sampling rate               : 48.0 kHz
    Frame rate                  : 31.250 FPS (1536 SPF)
    Bit depth                   : 16 bits
    Compression mode            : Lossy
    Stream size                 : 32.0 MiB (5%)
    Language                    : English
    Service kind                : Complete Main
    Default                     : No
    Forced                      : No
    
    Menu
    00:00:00.000                : en:Chapter 1
    00:03:07.109                : en:Chapter 2
    00:03:35.161                : en:Chapter 3
    00:09:10.871                : en:Chapter 4
    00:15:09.961                : en:Chapter 5
    00:21:54.984                : en:Chapter 6
    00:22:24.973                : en:Chapter 7
    
    
     
    • СКАЧАТЬ MAGNET
      (3,6 КБ, 33 Просмотров, Размер: 684,6 МБ, Сидеры: 1, Личеры: 0, Золото
    • Загрузка...
  2. Devzz
    Devzz
    Продолжение не скоро, если вообще будет, т.к. проект пока без спонсора.
    18 апр 2019